[Việt Nam, Hài] Nhà Có 5 Nàng Tiên (2013) Full 1 Link

nha+co+5+nang+tien [Việt Nam, Hài] Nhà Có 5 Nàng Tiên (2013) Full 1 Link

Sản Xuất: Công ty Sóng Vàng.
Đạo Diễn: NSND Trần Ngọc Giàu.
Diễn Viên: Hoài Linh, Việt Hương, Phương Thanh, Chí Tài, Phi Nhung, Tấn Beo cùng nhiều hotboy, hotgirl của làng giải trí Việt như Bảo Anh (The Voice), Miu Lê, Ngân Khánh, Minh Luân, Hà Trí Quang, Trương Thế Vinh, Quốc Trường…
Quốc Gia: Việt Nam.
Kênh Phát Hình: VTV9.
Năn Sản Xuất: 2013.

nha co 5 nang tien 4 JPG 1359369440 500x0 jpg 1360148445 500x0 [Việt Nam, Hài] Nhà Có 5 Nàng Tiên (2013) Full 1 Link

Giới Thiệu:
“Nhà có 5 nàng tiên” là câu chuyện kể về một đôi vợ chồng nghèo Tiên Cảnh và Mai Nhỏ Nhẹ cưu mang 5 bé gái mồ côi. Dù chỉ là cha mẹ nuôi nhưng cả hai đều yêu quý các bé gái như con ruột và luôn dành cho chúng những điều tốt đẹp nhất.
Thời gian trôi đi, 5 đứa trẻ trở thành những thiếu nữ giỏi giang, xinh đẹp. Mỗi người đều sở hữu một tài năng, nên nhiều người gọi họ bằng cái tên mỹ miều “5 nàng tiên”. Nhưng tai họa ập đến khi cô con gái út Tiên Vân (Miu Lê) bị chính mẹ ruột gán nợ cho một người đàn ông háo sắc. Đây cũng là lúc cả gia đình cùng lao vào cuộc giải cứu cô Út đầy ngoạn mục.

Video
ID : 1
Format : MPEG-4 Visual
Format profile : Simple@L1
Format settings, BVOP : No
Format settings, QPel : No
Format settings, GMC : No warppoints
Format settings, Matrix : Default (H.263)
Codec ID : 20
Duration : 2h 13mn
Bit rate mode : Constant
Bit rate : 2 000 Kbps
Width : 720 pixels
Height : 480 pixels
Display aspect ratio : 3:2
Frame rate mode : Constant
Frame rate : 29.970 fps
Standard : NTSC
Color space : YUV
Chroma subsampling : 4:2:0
Bit depth : 8 bits
Scan type : Progressive
Compression mode : Lossy
Bits/(Pixel*Frame) : 0.193
Stream size : 1.86 GiB (94%)
Writing library : Lavc54.86.100Audio
ID : 2
Format : AAC
Format/Info : Advanced Audio Codec
Format profile : LC
Codec ID : 40
Duration : 2h 13mn
Bit rate mode : Constant
Bit rate : 128 Kbps
Channel count : 2 channels
Channel positions : Front: L R
Sampling rate : 44.1 KHz
Compression mode : Lossy
Stream size : 122 MiB (6%)

Download Here :

P1: http://up.4share.vn/f/5261616167656163/Nha%20co%205%20nang%20tien%20Disk1.mp4.file

p2: http://up.4share.vn/f/4370707074727074/Nha%20co%205%20nang%20tien%20Disk2.mp4.file

Cùng Nội Dung:

Liên Quan Khác

Leave a Reply

Your email address will not be published. Required fields are marked *

You may use these HTML tags and attributes: <a href="" title=""> <abbr title=""> <acronym title=""> <b> <blockquote cite=""> <cite> <code> <del datetime=""> <em> <i> <q cite=""> <s> <strike> <strong>