[Hành Động, Cảnh Sát] Police Story 2013 (Câu Chuyện Cảnh Sát) HDTV 720p x264 AAC PHD

2uYGx8K [Hành Động, Cảnh Sát] Police Story 2013 (Câu Chuyện Cảnh Sát) HDTV 720p x264 AAC PHD
6zmri [Hành Động, Cảnh Sát] Police Story 2013 (Câu Chuyện Cảnh Sát) HDTV 720p x264 AAC PHD

Code:
Complete name                            : Police.Story.2013.HDTV.720p.x264.AAC-PHD.mp4
Format                                   : MPEG-4
Format profile                           : Base Media
Codec ID                                 : isom
File size                                : 1.32 GiB
Duration                                 : 1h 46mn
Overall bit rate mode                    : Variable
Overall bit rate                         : 1 781 Kbps
Encoded date                             : UTC 2014-01-27 02:50:28
Tagged date                              : UTC 2014-01-27 02:50:28

Video
ID                                       : 1
Format                                   : AVC
Format/Info                              : Advanced Video Codec
Format profile                           : High@L3.1
Format settings, CABAC                   : Yes
Format settings, ReFrames                : 5 frames
Codec ID                                 : avc1
Codec ID/Info                            : Advanced Video Coding
Duration                                 : 1h 46mn
Bit rate                                 : 1 650 Kbps
Maximum bit rate                         : 6 533 Kbps
Width                                    : 1 280 pixels
Height                                   : 720 pixels
Display aspect ratio                     : 16:9
Frame rate mode                          : Constant
Frame rate                               : 25.000 fps
Color space                              : YUV
Chroma subsampling                       : 4:2:0
Bit depth                                : 8 bits
Scan type                                : Progressive
Bits/(Pixel*Frame)                       : 0.072
Stream size                              : 1.23 GiB (93%)
Encoded date                             : UTC 2014-01-27 02:50:28
Tagged date                              : UTC 2014-01-27 02:50:42

Audio
ID                                       : 2
Format                                   : AAC
Format/Info                              : Advanced Audio Codec
Format profile                           : LC
Codec ID                                 : 40
Duration                                 : 1h 46mn
Bit rate mode                            : Variable
Bit rate                                 : 128 Kbps
Maximum bit rate                         : 154 Kbps
Channel(s)                               : 2 channels
Channel positions                        : Front: L R
Sampling rate                            : 44.1 KHz
Compression mode                         : Lossy
Stream size                              : 97.4 MiB (7%)

 

Bắt đầu ra mắt năm 1985, Police Story (Câu chuyện cảnh sát) được nhiều người xem là loạt phim hành động – võ thuật kinh điển gắn liền với tên tuổi của Thành Long. Sau 9 năm kể từ khi New Police Story (2004) ra mắt, Thành Long sẽ giới thiệu đến người xem phần phim mới có tên Câu chuyện cảnh sát 2013 công chiếu ở Việt Nam vào dịp Giáng Sinh. Đáng chú ý là khác với những phần trước diễn biến theo một nhân vật chính thì Câu chuyện cảnh sát2013 có một cốt chuyện riêng biệt, không liên quan tới các phần phim trước đó cùng màu sắc u tối, gai góc hơn.

Trong Police Story 2013, Thành Long sẽ vào vai một thanh tra cảnh sát tại Trung Quốc Đại Lục Zhong Wen. Viên cảnh sát và cô con gái nổi loạn của ông Miaomiao (Cảnh Điềm) bị kẹt trong một vụ bắt cóc con tin tại quán bar. Đứng sau âm mưu của vụ bắt cóc là người chủ quán bar – Wu Jiang (Lưu Diệp), kẻ đang mưu tính sử dụng những con tin để đổi lấy tự do cho một tên tội phạm nguy hiểm đã bị giam giữ nhiều năm.

Đồng hành với Thành Long trong Câu chuyện cảnh sát 2013 là nữ diễn viên trẻ Cảnh Điềm và tài tử hạng A của điện ảnh Hoa ngữ Lưu Diệp. Thành Long cũng tin tưởng giao chiếc ghế chỉ đạo cho đạo diễn Đinh Thạnh, người trước đây từng chỉ đạo thực hiện bộ phim Đại binh tiểu tướng (Little Big Soldier)mà Thành Long đã tham gia năm 2010. Đặc biệt phim sẽ có những cảnh thể hiện tình cảm cha – con vốn khá hiếm hoi trong phim của Thành Long.

 

HDVN Screenshot1 zps3154f003 [Hành Động, Cảnh Sát] Police Story 2013 (Câu Chuyện Cảnh Sát) HDTV 720p x264 AAC PHD
3eef3e304130570 [Hành Động, Cảnh Sát] Police Story 2013 (Câu Chuyện Cảnh Sát) HDTV 720p x264 AAC PHD b32acc304130574 [Hành Động, Cảnh Sát] Police Story 2013 (Câu Chuyện Cảnh Sát) HDTV 720p x264 AAC PHD e8d0ee304130575 [Hành Động, Cảnh Sát] Police Story 2013 (Câu Chuyện Cảnh Sát) HDTV 720p x264 AAC PHD 43b39e304130577 [Hành Động, Cảnh Sát] Police Story 2013 (Câu Chuyện Cảnh Sát) HDTV 720p x264 AAC PHD a764d6304130579 [Hành Động, Cảnh Sát] Police Story 2013 (Câu Chuyện Cảnh Sát) HDTV 720p x264 AAC PHD 3bcfb6304130582 [Hành Động, Cảnh Sát] Police Story 2013 (Câu Chuyện Cảnh Sát) HDTV 720p x264 AAC PHD d20302304130583 [Hành Động, Cảnh Sát] Police Story 2013 (Câu Chuyện Cảnh Sát) HDTV 720p x264 AAC PHD 22dd9a304130586 [Hành Động, Cảnh Sát] Police Story 2013 (Câu Chuyện Cảnh Sát) HDTV 720p x264 AAC PHD 80df8f304130589 [Hành Động, Cảnh Sát] Police Story 2013 (Câu Chuyện Cảnh Sát) HDTV 720p x264 AAC PHD 1cd09e304130590 [Hành Động, Cảnh Sát] Police Story 2013 (Câu Chuyện Cảnh Sát) HDTV 720p x264 AAC PHD

HDVN DL zps7a53e129 [Hành Động, Cảnh Sát] Police Story 2013 (Câu Chuyện Cảnh Sát) HDTV 720p x264 AAC PHD
~1.33GB

http://www.fshare.vn/file/T786Z0XK8T

Cùng Nội Dung:

Liên Quan Khác

Leave a Reply

Your email address will not be published. Required fields are marked *

You may use these HTML tags and attributes: <a href="" title=""> <abbr title=""> <acronym title=""> <b> <blockquote cite=""> <cite> <code> <del datetime=""> <em> <i> <q cite=""> <s> <strike> <strong>